The Crazies (2010) R5 XviD-MAX 

The Crazies (2010) R5 XviD-MAX
Type:
Video > Movies
Size:
1.18 GB
Tag(s):
The Crazies 2010 DVDRip XviD MAX torrent free download torrent download
Info:
IMDB
Spoken language(s):
English
Uploaded:
2010-04-17T18:00:17+01:00
By:
extremezone VIP
Seeders:
3
Leechers:
0
Comments
132
Info Hash:
8f498b7928fb7b4e926905c0652c1e6299568e28
The Crazies (2010) R5  XviD-MAX picture
The Crazies 2010 BDRip XviD-SAiNTS 
thepiratebay.se/torrent/5634735/The_Crazies_2010_BDRip_XviD-SAiNTS

The Crazies (2010) R5 XviD-MAX

Format                           : AVI
Format/Info                      : Audio Video Interleave 
Format profile                   : OpenDML  
File size                        : 1.18 GiB
Duration                         : 1h 36mn
Overall bit rate                 : 1 740 Kbps
Writing application              : VirtualDubMod 1.5.10.2 (build 2542/release)
Writing library                  : VirtualDubMod build 2542/release
Original source form             : MAX TORRENTZ
Copyright                        : SIGISMUNT

Video
ID                               : 0
Format                           : MPEG-4 Visual
Format profile                   : AdvancedSimple@L5
Format settings, BVOP            : Yes
Format settings, QPel            : No
Format settings, GMC             : No warppoints
Format settings, Matrix          : Custom
Codec ID                         : XVID
Codec ID/Hint                    : XviD
Duration                         : 1h 36mn
Bit rate                         : 1 629 Kbps
Width                            : 720 pixels
Height                           : 304 pixels
Display aspect ratio             : 2.35:1
Frame rate                       : 25.000 fps
Resolution                       : 24 bits
Colorimetry                      : 4:2:0
Scan type                        : Progressive 
Bits/(Pixel*Frame)               : 0.298
Stream size                      : 1.10 GiB (94%)
Writing library                  : XviD 1.2.1 (UTC 2008-12-04)

Audio
ID                               : 1
Format                           : MPEG Audio
Format version                   : Version 1
Format profile                   : Layer 3
Codec ID                         : 55
Codec ID/Hint                    : MP3
Duration                         : 1h 29mn
Bit rate mode                    : Variable
Bit rate                         : 112 Kbps
Minimum bit rate                 : 112 Kbps
Channel(s)                       : 2 channels
Sampling rate                    : 44.1 KHz
Resolution                       : 16 bits
Stream size                      : 71.4 MiB (6%)
Alignment                        : Aligned on interleaves
Interleave, duration             : 28 ms (0.70 video frame)
Interleave, preload duration     : 74 ms
Writing library                  : LAME3.98 
Encoding settings                : -m j -V 6 -q 5 -lowpass 15.5 --vbr-new -b 112

Sources: Original DVD Copy + R5 Noir Audio source adjusted (-50ms) 
www.imdb.com/title/tt0455407/

Screens: 
 
 
 
 


ScreenCaps: 


The Crazies (2010) R5 DVDRip XviD-MAX Torrent Free Download 
thepiratebay.se/user/extremezone/0/7
Files:

Comments

Thanks
extremezone could you please tell me when a dvdrip of this film will be available? thanx m8!
I didn't dl this torrent but I'm sure its not much different then whats out there. So how about you guys go whine to the other uploaders? Seriously as someone else mentioned Axxo is now gone, thanks to the whiney bitches out there and he was the king. Here's my advice go back to limewire and fuck up your pcs instead of coming here and fucking with our trustworthy uploaders. I really can't believe you guys. I'm frustrated that a good copy of The Crazies isn't out either even though movies coming out a couple of weeks later have better quality copies out. This isn't the uploaders fault, they try to get the best of what they have to us. Do you think they get fucking paid for this shit? Quit whining and when a better copy is out, someone will upload it if you didn't piss them off too much. For all we know your bitching is why we don't have a better quality. Keep up the great work Extremezone, I'm seeing your name more and more on torrents I'm interested in, and if it wasn't for you and a few others we wouldn't have anything, let alone quality. Sorry about the rant. It's late and most of you idiots ( by that I mean half the posters not everyone ) are too annoying to ignore.
I Just got a warning letter in the mail for downloading this movie. The owner of the film said net time he will press charges and legal action, be careful people!
I don't think the sounds is in synch. There's a split second wherein the dialogues of the characters are not in synch. Quality of the vid's good though. A-8 V-8
Scratch that. V-8 A-3-4 It comes with an erie sound at the background plus the synch of the audio is not in order.
Extremezone - good upload as usual. V8 - A 6.5
1 2 3 4 5