Brooklyn's Finest (PSP + Ipod touch + Zune) 

Brooklyn's Finest (PSP + Ipod touch + Zune)
Type:
Video > Handheld
Size:
500.02 MB
Tag(s):
brooklyns finest psp ipod zune
Info:
IMDB
Spoken language(s):
English
Uploaded:
2010-06-23T11:16:00+01:00
By:
on.off.on Trusted
Seeders:
0
Leechers:
1
Comments
10
Info Hash:
02a3384b94130f07aa464f3fcb46501bc2c597f9
Brooklyn's Finest (PSP + Ipod touch + Zune) picture
Brooklyn's Finest

source:

Brooklyns.Finest.720p.Bluray.x264-CBGB 
www.imdb.com/title/tt1210042/


ID                               : 1
Format                           : AVC
Format/Info                      : Advanced Video Codec
Format profile                   : Baseline@L2.0
Format settings, CABAC           : No
Format settings, ReFrames        : 3 frames
Codec ID                         : avc1
Codec ID/Info                    : Advanced Video Coding
Duration                         : 2h 12mn
Bit rate mode                    : Variable
Bit rate                         : 395 Kbps
Width                            : 480 pixels
Height                           : 208 pixels
Display aspect ratio             : 2.35:1
Frame rate mode                  : Variable
Frame rate                       : 23.976 fps
Minimum frame rate               : 23.810 fps
Maximum frame rate               : 24.390 fps
Color space                      : YUV
Chroma subsampling               : 4:2:0
Bit depth                        : 8 bits
Scan type                        : Progressive
Bits/(Pixel*Frame)               : 0.165
Stream size                      : 375 MiB (75%)
Writing library                  : x264 core 79

ID                               : 2
Format                           : AAC
Format/Info                      : Advanced Audio Codec
Format version                   : Version 4
Format profile                   : LC
Format settings, SBR             : No
Codec ID                         : 40
Duration                         : 2h 12mn
Bit rate mode                    : Variable
Bit rate                         : 128 Kbps
Maximum bit rate                 : 254 Kbps
Channel(s)                       : 2 channels
Channel positions                : Front: L R
Sampling rate                    : 48.0 KHz
Stream size                      : 121 MiB (24%)
Language                         : English 
 
 
 
 
 
 
 





PLEASE LET THE TORRENT SEED AND SHARE IT WITH ALL YOU KNOW!

Let me know what I can do to be your trusted source of Handheld videos.





-OOO
Files:

Comments

I was wondering what you used to gather the video info.
try mediainfo http://mediainfo.sourceforge.net/en
Thank you for getting back to me so quick! Also do you use encode-handheld? http://thepiratebay.se/torrent/5403468/encode-handheld-5.3.pl/ If not, what do you use?
I use something else... ;)
May I ask what you use?
Perhaps, MeGUI ?
no.. its my little secret =)
Okay. Well, thanks for your help. (^_^)
=) ur welcome dude! and thanks for dl'ing
THANKS GOOD JOB I REALLY APPRECIATE THAT YOU INCLUDE SUBTITLES AS WELL I HOPE THIS IS THE NORM FROM NOW ON THANKS
0