The Goonies (PSP + Ipod touch + Zune) 

The Goonies (PSP + Ipod touch + Zune)
Type:
Video > Handheld
Size:
433.52 MB
Tag(s):
the goonies psp ipod zune
Info:
IMDB
Spoken language(s):
English
Uploaded:
2010-06-23T21:53:32+01:00
By:
on.off.on Trusted
Seeders:
2
Leechers:
0
Comments
18
Info Hash:
e8639ee8480bb7e087602cb0492be3689afa44b6
The Goonies (PSP + Ipod touch + Zune) picture
The Goonies 
www.imdb.com/title/tt0089218/

Source  :

The.Goonies.1985.720p.BluRay.x264-SiNNERS


Info    :

ID                               : 1
Format                           : AVC
Format/Info                      : Advanced Video Codec
Format profile                   : Baseline@L2.0
Format settings, CABAC           : No
Format settings, ReFrames        : 3 frames
Codec ID                         : avc1
Codec ID/Info                    : Advanced Video Coding
Duration                         : 1h 53mn
Bit rate mode                    : Variable
Bit rate                         : 400 Kbps
Width                            : 464 pixels
Height                           : 192 pixels
Display aspect ratio             : 2.40:1
Frame rate mode                  : Variable
Frame rate                       : 23.976 fps
Minimum frame rate               : 23.810 fps
Maximum frame rate               : 24.390 fps
Color space                      : YUV
Chroma subsampling               : 4:2:0
Bit depth                        : 8 bits
Scan type                        : Progressive
Bits/(Pixel*Frame)               : 0.187
Stream size                      : 326 MiB (75%)
Writing library                  : x264 core 79


ID                               : 2
Format                           : AAC
Format/Info                      : Advanced Audio Codec
Format version                   : Version 4
Format profile                   : LC
Format settings, SBR             : No
Codec ID                         : 40
Duration                         : 1h 53mn
Bit rate mode                    : Variable
Bit rate                         : 128 Kbps
Maximum bit rate                 : 165 Kbps
Channel(s)                       : 2 channels
Channel positions                : Front: L R
Sampling rate                    : 48.0 KHz
Stream size                      : 104 MiB (24%)
Language                         : English

Screens :  
 
 
 
 



PLEASE LET THE TORRENT SEED AND SHARE IT WITH ALL YOU KNOW!

Let me know what I can do to be your trusted source of Handheld videos.

-OOO
Files:

Comments

Sir, i have one final request if you would consider: there is a user named zenka_onna who upped a title called 'Robogeisha' with loose english subs. Can you hardcode subs? It would be awesome if you could post up decent handheld of this movie with the subs....
rshkhsee that movie looks REALLY bad!!
haha, i seen a trailer clip of it and it looks weird and nuts as hell. I like Japanese Horror and stuff, and i remember there being many requests for this sometime back, so i figured it would be good, or funny or something. If this goes against your quality standards, i can dig it :]
nah its all good.. i like crazy movies lol Ill see what i can do
Ok, thanksalotman
on.off.on just read you,re comment mate its not up to me mate notice you have some good classic movies yer mate going to dl a few from you mate this one defo just luv the goonies nice size file is well thanks for this mate :)
hehe thanks vicerock =) I was just messing around with ya!! I love your work!
@ rshkhsee - - - If you would like, I would be glad to do that movie for you. The source that I would use is - RoboGeisha 2009 DVDRip XviD AC3-ViSiON . If you want it just comment on 1 of my torrents or send me an email movi3sdir3ct@hotbox.ru
Almost forgot, thanks on.off.on for the help and The Goonies, I know someone will enjoy! (^_^)
@The_Day_Walker I already said I would do it for him...
Sorry, I didn't see that comment. =( My bad.
bad boy now go to your corner! lol
(^_^) rofl (^_^)
Oh yeah, good...that would be great man. Hope its not too much trouble with the subs and everything. Hell yeah! I hope this isnt TOO shitty :]] I appreciate it once again! Top-notch uploader \m/
I have it ready needed to use another program to make it possible with the hard-subs.. right now Im just waiting for this site to work again so we can upload lol
Hey listen bud, before you go too far....you can cancel this project if you please...i was able to watch some of this movie and fucking hell it sucked. I shouldve listened :] So its up to you now, but please keep that flick away from my eyes again! Thanks -
@rshkhsee thank god.. my eyes was bleeding when i watched the first 5 mins lol lol lol
Yeah i kept watching for a little while after those dicknose women appeared, and i wish i wouldnt have....so, cool man, thanks alot for considering...and keep the QUALITY coming :]
1