Big Trouble in Little China (PSP + Ipod touch + Zune) 

Big Trouble in Little China (PSP + Ipod touch + Zune)
:
Video > Handheld
Size:
379.41 MB
Tag(s):
big trouble in little china psp ipod zune h264
Info:
IMDB
Spoken language(s):
English
Uploaded:
2010-06-29T23:55:27+01:00
By:
on.off.on Trusted
Seeders:
0
Leechers:
1
Comments
14
Info Hash:
f84553db1c08870bb838649465dc1b621f641613
Big Trouble in Little China (PSP + Ipod touch + Zune) picture
Big Trouble in Little China 
www.imdb.com/title/tt0090728/

Source  :

B.T.I.L.China-SANTi-BRrip

Info    :

ID                               : 1
Format                           : AVC
Format/Info                      : Advanced Video Codec
Format profile                   : Baseline@L2.0
Format settings, CABAC           : No
Format settings, ReFrames        : 3 frames
Codec ID                         : avc1
Codec ID/Info                    : Advanced Video Coding
Duration                         : 1h 39mn
Bit rate mode                    : Variable
Bit rate                         : 400 Kbps
Width                            : 464 pixels
Height                           : 192 pixels
Display aspect ratio             : 2.40:1
Frame rate mode                  : Variable
Frame rate                       : 23.976 fps
Minimum frame rate               : 23.974 fps
Maximum frame rate               : 23.981 fps
Color space                      : YUV
Chroma subsampling               : 4:2:0
Bit depth                        : 8 bits
Scan type                        : Progressive
Bits/(Pixel*Frame)               : 0.187
Stream size                      : 285 MiB (75%)
Writing library                  : x264 core 79

ID                               : 2
Format                           : AAC
Format/Info                      : Advanced Audio Codec
Format version                   : Version 4
Format profile                   : LC
Format settings, SBR             : No
Codec ID                         : 40
Duration                         : 1h 39mn
Bit rate mode                    : Variable
Bit rate                         : 128 Kbps
Maximum bit rate                 : 198 Kbps
Channel(s)                       : 2 channels
Channel positions                : Front: L R
Sampling rate                    : 48.0 KHz
Stream size                      : 91.3 MiB (24%)


Screens : 
 
 
 
 
 




PLEASE LET THE TORRENT SEED AND SHARE IT WITH ALL YOU KNOW!

Let me know what I can do to be your trusted source of Handheld videos. 
thepiratebay.se/user/on.off.on/ -OOO
Files:

Comments

thanks, i'm liking all the classics
THANKS! Great flick, dont stop with the great periods of movies ever...lol They dont make classics like this anymore!
lol i love the 80's =)
while you're doing classics, how about some classic horror movies, like friday the 13th or nightmare on elm street?
nightmare on elm street sounds good.. damn i have alot of movies to do =) lol
already out mate... look : http://thepiratebay.se/torrent/4411976/A_Nightmare_on_Elm_Street_(PSP__iPhone__iPod_Touch__Nano__Zune)
@ooo that's just the first movie there are 7 not including freddy vs jason and the reboot/remake
gotcha u want package solution... but im not incl. the new remake.. cuz its not out yet
thanks, you are awesome
You ROCK !! Keep it up and your going to pass HolyRoses !!! Thanks for the upload !!
next project.. american pie series!
@ooo I don't want to sound like im requesting too much, but if its possible can you up the unrated american pies?
hehe no worries mate =)
Nice rip and a great movie. Thanks for sharing it!
1