Greenberg (PSP + Ipod touch + Zune) 

Greenberg (PSP + Ipod touch + Zune)
:
Video > Handheld
Size:
408.13 MB
Tag(s):
Greenberg psp ipod zune h264
Info:
IMDB
Spoken language(s):
English
Uploaded:
2010-06-30T22:49:09+01:00
By:
on.off.on Trusted
Seeders:
1
Leechers:
0
Comments
2
Info Hash:
a2aa2376f4c8d5089fd18906e86f371ce7307710
Greenberg (PSP + Ipod touch + Zune) picture
Greenberg 
www.imdb.com/title/tt1234654/


Source  :

greenberg.limited.720p.bluray.x264-machd

Info :

ID                               : 1
Format                           : AVC
Format/Info                      : Advanced Video Codec
Format profile                   : Baseline@L2.0
Format settings, CABAC           : No
Format settings, ReFrames        : 3 frames
Codec ID                         : avc1
Codec ID/Info                    : Advanced Video Coding
Duration                         : 1h 47mn
Bit rate mode                    : Variable
Bit rate                         : 400 Kbps
Width                            : 480 pixels
Height                           : 208 pixels
Display aspect ratio             : 2.35:1
Frame rate mode                  : Variable
Frame rate                       : 23.976 fps
Minimum frame rate               : 23.810 fps
Maximum frame rate               : 24.390 fps
Color space                      : YUV
Chroma subsampling               : 4:2:0
Bit depth                        : 8 bits
Scan type                        : Progressive
Bits/(Pixel*Frame)               : 0.167
Stream size                      : 307 MiB (75%)
Writing library                  : x264 core 79

ID                               : 2
Format                           : AAC
Format/Info                      : Advanced Audio Codec
Format version                   : Version 4
Format profile                   : LC
Format settings, SBR             : No
Codec ID                         : 40
Duration                         : 1h 47mn
Bit rate mode                    : Variable
Bit rate                         : 128 Kbps
Maximum bit rate                 : 208 Kbps
Channel(s)                       : 2 channels
Channel positions                : Front: L R
Sampling rate                    : 48.0 KHz
Stream size                      : 98.1 MiB (24%)
Language                         : English


Screens : 
 
 
 
 
 
 
 





PLEASE LET THE TORRENT SEED AND SHARE IT WITH ALL YOU KNOW!

Let me know what I can do to be your trusted source of Handheld videos. 
thepiratebay.se/user/on.off.on/ -OOO
Files:

Comments

superb post sir
thx mate =)
0