The Tale of Despereaux (PSP + Ipod touch + Zune) 

The Tale of Despereaux (PSP + Ipod touch + Zune)
:
Video > Handheld
Size:
356.06 MB
Tag(s):
the tale of despereaux psp ipod zune h264
Info:
IMDB
Spoken language(s):
English
Uploaded:
2010-07-01T14:10:06+01:00
By:
on.off.on Trusted
Seeders:
0
Leechers:
0
Comments
6
Info Hash:
2282e215125739eebf7c9468a131c03cd46fd611
The Tale of Despereaux  (PSP + Ipod touch + Zune) picture
The Tale of Despereaux 
www.imdb.com/title/tt0420238/


Source  :

The Tale of Despereaux (2008) 1080p BluRay DTS x264-DON

Info :
ID                               : 1
Format                           : AVC
Format/Info                      : Advanced Video Codec
Format profile                   : Baseline@L2.0
Format settings, CABAC           : No
Format settings, ReFrames        : 3 frames
Codec ID                         : avc1
Codec ID/Info                    : Advanced Video Coding
Duration                         : 1h 33mn
Bit rate mode                    : Variable
Bit rate                         : 400 Kbps
Width                            : 480 pixels
Height                           : 208 pixels
Display aspect ratio             : 2.35:1
Frame rate mode                  : Variable
Frame rate                       : 23.976 fps
Minimum frame rate               : 23.810 fps
Maximum frame rate               : 24.390 fps
Color space                      : YUV
Chroma subsampling               : 4:2:0
Bit depth                        : 8 bits
Scan type                        : Progressive
Bits/(Pixel*Frame)               : 0.167
Stream size                      : 268 MiB (75%)
Writing library                  : x264 core 79

ID                               : 2
Format                           : AAC
Format/Info                      : Advanced Audio Codec
Format version                   : Version 4
Format profile                   : LC
Format settings, SBR             : No
Codec ID                         : 40
Duration                         : 1h 33mn
Bit rate mode                    : Variable
Bit rate                         : 128 Kbps
Maximum bit rate                 : 240 Kbps
Channel(s)                       : 2 channels
Channel positions                : Front: L R
Sampling rate                    : 48.0 KHz
Stream size                      : 85.5 MiB (24%)
Language                         : English

Screens : 
 
 
 
 
 
 
 





PLEASE LET THE TORRENT SEED AND SHARE IT WITH ALL YOU KNOW!

Let me know what I can do to be your trusted source of Handheld videos. 
thepiratebay.se/user/on.off.on/ -OOO
Files:

Comments

as requested.. took me a while to get this so please enjoy and seed for as long as you can this one is rare =)
Hi mate I think u need to re-encode the video file so the subs are hardcoded into the movie! As far as I can see psp doesnt support SRT files.
I do that cuz alot of people watches these movies on their pc with vlc player or media player classic. People with iphones can use SrtiPhone to convert the srt file to txt that can be displayed on their iphone =) Personally I never use subtitles... sorry for not being more helpful.
thanks for mentioning srtiphone, i had never heard of it before but its much easier than re-encoding every movie i download
@on.off.on thank you very much mate. u own me :)
lol bara-d ur welcome =)
0