The Girl Who Kicked the Hornets Nest (PSP + Ipod touch + Zune) 

The Girl Who Kicked the Hornets Nest (PSP + Ipod touch + Zune)
:
Video > Handheld
Size:
558.92 MB
Tag(s):
the girl who kicked the hornet ipod psp zune h264
Spoken language(s):
Swedish
Uploaded:
2010-07-02T16:00:18+01:00
By:
on.off.on Trusted
Seeders:
0
Leechers:
0
Comments
13
Info Hash:
ad413a18c9806aa9d9e6d6409dceedf5842cd773
The Girl Who Kicked the Hornets Nest (PSP + Ipod touch + Zune) picture
The Girl Who Kicked the Hornets Nest - Swedish

 
www.imdb.com/title/tt1343097/

Source  :

Luftslottet Som Sprängdes (2009) 720p multisub



Info    :

ID                               : 1
Format                           : AVC
Format/Info                      : Advanced Video Codec
Format profile                   : Baseline@L2.1
Format settings, CABAC           : No
Format settings, ReFrames        : 3 frames
Codec ID                         : avc1
Codec ID/Info                    : Advanced Video Coding
Duration                         : 2h 26mn
Bit rate mode                    : Variable
Bit rate                         : 400 Kbps
Width                            : 480 pixels
Height                           : 272 pixels
Display aspect ratio             : 16:9
Frame rate mode                  : Variable
Frame rate                       : 24.000 fps
Minimum frame rate               : 23.810 fps
Maximum frame rate               : 24.390 fps
Color space                      : YUV
Chroma subsampling               : 4:2:0
Bit depth                        : 8 bits
Scan type                        : Progressive
Bits/(Pixel*Frame)               : 0.128
Stream size                      : 420 MiB (75%)
Writing library                  : x264 core 79

ID                               : 2
Format                           : AAC
Format/Info                      : Advanced Audio Codec
Format version                   : Version 4
Format profile                   : LC
Format settings, SBR             : No
Codec ID                         : 40
Duration                         : 2h 26mn
Bit rate mode                    : Variable
Bit rate                         : 128 Kbps
Maximum bit rate                 : 216 Kbps
Channel(s)                       : 2 channels
Channel positions                : Front: L R
Sampling rate                    : 48.0 KHz
Stream size                      : 134 MiB (24%)
Language                         : Swedish

Screens :
 

 

 

 

 

 

 

 


  




THIS MOVIE IS IN SWEDISH WITH ENGLISH SUBS! REASON? 
THE DUBBED VERSION IS A SHAME FOR THE ENTIRE MOVIE!!!!





PLEASE LET THE TORRENT SEED AND SHARE IT WITH ALL YOU KNOW!

Let me know what I can do to be your trusted source of Handheld videos.  
thepiratebay.se/user/on.off.on/ -OOO
Files:

Comments

still dl-ing. thanks in advance.
@raja123456kumar check ur settings.. theres plenty of seeders on this torrent!
There\'s no English subtitles. Do you know where i can find them?nEverything else is great.n
@neehole the subs are included.. English
Hi on.off.on this movies was given as with english subtitles but like neehole, I can't find them. The video is fine but when I click on view, I get two options (language and subtitles). language is set on default and thats ok but subtitles seems to be set on off. I cannot see how to alter this to on. There is no other option. Can you help Tiptop
how do i get the subs to work on my iphone - anyone help ????
Note that the comments are really quite poor on this version.
edit: Note that the subtitles are really quite poor on this version.
Hey there mate the downlaods are great!! Would it be possible to have a go at Watchmen.
Thank You!!!
Please seed Guys
Uploader can you please seeed it i am not getting any seed
please seed
1