Alien Quadrilogy (PSP + Ipod touch + Zune) 

Alien Quadrilogy (PSP + Ipod touch + Zune)
Type:
Video > Handheld
Size:
1.77 GB
Uploaded:
2010-07-13T18:38:11+01:00
By:
on.off.on Trusted
Seeders:
1
Leechers:
0
Comments
18
Info Hash:
5ed4aa029226c995818988c0f6f52f5261c258c4
Alien Quadrilogy
 
www.imdb.com/title/tt0078748/
 
www.imdb.com/title/tt0090605/
 
www.imdb.com/title/tt0103644/
 
www.imdb.com/title/tt0118583/




Source  :
 
thepiratebay.se/torrent/4674934/Alien.Quadrilogy.720p.x264.HD-BiTs 

Alien.DirCut.1979.DTheater.720p.x264.DTS-iLL

Aliens.PROPER.HDTV.720p.x264.AC3-5.1-DiC

Alien.3.720p.HDTV.XVID-ANON

Alien.Resurrection.720p.HDTV.XVID-ANON





Info on movie Aliens (2):

ID                               : 1
Format                           : AVC
Format/Info                      : Advanced Video Codec
Format profile                   : Baseline@L2.1
Format settings, CABAC           : No
Format settings, ReFrames        : 3 frames
Codec ID                         : avc1
Codec ID/Info                    : Advanced Video Coding
Duration                         : 2h 17mn
Bit rate mode                    : Variable
Bit rate                         : 400 Kbps
Width                            : 480 pixels
Height                           : 272 pixels
Display aspect ratio             : 16:9
Frame rate mode                  : Variable
Frame rate                       : 23.976 fps
Minimum frame rate               : 23.810 fps
Maximum frame rate               : 24.390 fps
Color space                      : YUV
Chroma subsampling               : 4:2:0
Bit depth                        : 8 bits
Scan type                        : Progressive
Bits/(Pixel*Frame)               : 0.128
Stream size                      : 392 MiB (75%)
Writing library                  : x264 core 79

ID                               : 2
Format                           : AAC
Format/Info                      : Advanced Audio Codec
Format version                   : Version 4
Format profile                   : LC
Format settings, SBR             : No
Codec ID                         : 40
Duration                         : 2h 17mn
Bit rate mode                    : Variable
Bit rate                         : 128 Kbps
Maximum bit rate                 : 161 Kbps
Channel(s)                       : 2 channels
Channel positions                : Front: L R
Sampling rate                    : 48.0 KHz
Stream size                      : 126 MiB (24%)
Language                         : English


Screens:
 

 

 

 






PLEASE LET THE TORRENT SEED AND SHARE IT WITH ALL YOU KNOW!

Let me know what I can do to be your trusted source of Handheld videos.
 
thepiratebay.se/user/on.off.on/ -OOO
Files:

Comments

can u upload Charlie Chaplin\'s The Gold Rush?nnhttp://thepiratebay.se/torrent/4313783/The_Gold_Rush_%5BCharles_Chaplin%5D_%281925%29
sorry mate i dont do black and white movies but great movie by the way! :)
A thousand thanks!
Great upload. Ever think about uploading The Godfather Trilogy? Anyway love your contributions, keep up the great work!
hey on.off.on gud upload...thnx very much..appreciate your work..i hav sum requests...can u plz upload them if possible??they are : the basketball diaries [1995], sleepers[1996], monster[2003], 28 days later[ 2002], children of men [2006], mysterious skin [2004].. thnx once again
nice one but now waiting for some new stuff mannnNanny McPhee And The Big Bang [wid english-hindi subtitle]nThat Evening SunnDeath At A Funeral 2010nnwaitin 4 ur reply wil u b doin em ?
nice one but now waiting for some new stuff mann nNanny McPhee And The Big Bang [wid english-hindi subtitle],nThat Evening Sun,nDeath At A Funeral 2010........n nwaitin 4 ur reply wil u b doin em ?
@souls2deny adding them to my long list lolnn@shojol also adding them =)nn@htctouch yes my dear friend will do them ;-)
thnx dude .. i did nanny mcfeeneagerly waitin 4nThat Evening Sun n Death At A Funeral 2010
On.off.on, I HAVE NEVER WATCHED ANY OF THESE FILMS BEFORE SO I WOULD BE THANKFULL IF YOU COULD TELL ME WHAT ORDER THEY ARE TO BE WATCHED IN??? JUST ASKIN BECAUSE THEY ARE NOT NUMBERED. KEEP UP THE GOOD WORK, YOUR RIPS ARE ABSOLUTELY BRILLIANT!!! CHEERS
movie order... alien... aliens... alien3... alien resurrection... =)
@htctouch... That Evening Sun is only dvdscr and not very good quality so Im waiting for a better release! hope you understand mate
Hello on.off.on, does these movies have subtitles?
does these movies have english subs?
no subs
nice 1, wat version is alien 3?
As always, awesome job! +1 I'm disappointed they all aren't director's cut, but this saved me from having to convert all my DVDs so I can't bitch! Kudos, mang. Nice file sizes too.
If anyone sees this, knows why this has a seed and http://thepiratebay.se/torrent/5869966/Alien_Anthology_%28iPod_Zune_PSP%29 doesnt; It could go a long way to answering my doubts.
1