Mission Impossible Trilogy (PSP + Ipod touch + Zune) 

Mission Impossible Trilogy (PSP + Ipod touch + Zune)
Type:
Video > Handheld
Size:
1.32 GB
Uploaded:
2010-07-20T15:13:55+01:00
By:
on.off.on Trusted
Seeders:
1
Leechers:
0
Comments
19
Info Hash:
b7b84b77aadcb3d44084acabbfa0ee30018fbd23
Mission Impossible Trilogy
 
www.imdb.com/title/tt0117060/
 
www.imdb.com/title/tt0120755/
 
www.imdb.com/title/tt0317919/

Source  :

Mission Impossible Trilogy Pack 1080p DTS x264-CtrlHD


Info:


ID                               : 1
Format                           : AVC
Format/Info                      : Advanced Video Codec
Format profile                   : Baseline@L2.0
Format settings, CABAC           : No
Format settings, ReFrames        : 3 frames
Codec ID                         : avc1
Codec ID/Info                    : Advanced Video Coding
Duration                         : 1h 50mn
Bit rate mode                    : Variable
Bit rate                         : 395 Kbps
Width                            : 464 pixels
Height                           : 192 pixels
Display aspect ratio             : 2.40:1
Frame rate mode                  : Variable
Frame rate                       : 23.976 fps
Minimum frame rate               : 11.987 fps
Maximum frame rate               : 23.981 fps
Color space                      : YUV
Chroma subsampling               : 4:2:0
Bit depth                        : 8 bits
Scan type                        : Progressive
Bits/(Pixel*Frame)               : 0.185
Stream size                      : 311 MiB (75%)
Writing library                  : x264 core 79

ID                               : 2
Format                           : AAC
Format/Info                      : Advanced Audio Codec
Format version                   : Version 4
Format profile                   : LC
Format settings, SBR             : No
Codec ID                         : 40
Duration                         : 1h 50mn
Bit rate mode                    : Variable
Bit rate                         : 128 Kbps
Maximum bit rate                 : 222 Kbps
Channel(s)                       : 2 channels
Channel positions                : Front: L R
Sampling rate                    : 48.0 KHz
Stream size                      : 101 MiB (24%)


Screens:
 

 

 




PLEASE LET THE TORRENT SEED AND SHARE IT WITH ALL YOU KNOW!

Let me know what I can do to be your trusted source of Handheld videos.
 
thepiratebay.se/user/on.off.on/ -OOO
Files:

Comments

dude congrats!! u got the skull finally :)
bara-d thx mate =)
go for VIP now !! :) love ur uploads .
please upload Mystic River (2003)
@linkin84 added to my giant list lol
dude why is your videos kinda distorted? Its like the video is horrible. I havent checked this one but other movies like "The A list" etc are freakin messed up videos.
@xiphone on your iphone?
@xiphone whatever your trying here your doing it wrong.. lol
prolly just full of shit
dude i dont know what im doing wrong. I just download and put in my phone like normal. Poppedtarts video works fine. But dude your one on an iphone is kinda distorted. Here is two screenshots from Killers and Eyeborg. The whole movie is distorted like that 80% of the time. And this happens on all of your videos. Is there any compatibility issue with iphone? http://www.flickr.com/photos/52265124@N03/4816677305/ http://www.flickr.com/photos/52265124@N03/4817299482/in/photostream/
hmm looks funky =) my ipod touch eats them raw and same with my friends psp. But I think it would be strange if nobody complained about it before... but i cant really say about iphones as i dont have one. If someone else with a iphone has the same problem please let me know. But then again mate i dont say anything about iphones in my files.. i say psp, ipod touch and zune... ;-)
Dude everybody elses with PSP, Ipod, Zune works superbly with iphone. I guess if you match with holyroses or poppedtarts it wouldn't give any problem(if you are using the same program). Just a request. I tried it on another iphone and the same thing happens. A lot kid will be using iphone soon since their parents are getting newer ones. If you would please look into it that would be great. Anyways thanks man for the movies.
@xiphone I suggest u dont download my movies then.. cuz Im not changing my software. it would also mean i should change my operationsystem too. almost 100 movies uploaded and your the first one having problems.. do the match.... Im not a jerk and I wish I could test it myself but with the few complaints I get its not worth all the hassle.
wow i did sound like a jerk... lol but mate i dont know what to.. my movies are almost the same as poppedtart.. just a different codec. maybe the iphone doesnt like that i dont know... Again I wish i could help you man
i have the same problem with the distorted video on ipod touch. its mostly when the pictures are moving very fast. i think its problem with the codec
xiphone and nagger7 can you guyz try this one out and tell me if that works on ur devices?? thx in advance : http://thepiratebay.se/torrent/5727923/The_Joneses_(iPod-PSP-Zune)
the joneses works perfect thanks! i hope u make the rest of ur movies with this same program
these movies are not working on my psp....all the movies ending in -OOO dont work ....whts the prob...can u tell?
Thank you
1