Merlin (2008) S03EP06 XVID (ENG+NL SUBS) RHoek 2Lions-Team 

Merlin (2008) S03EP06 XVID (ENG+NL SUBS) RHoek 2Lions-Team
Type:
Video > TV shows
Size:
350.71 MB
Tag(s):
2Lions 2Lions-Team Merlin (2008) season 3 merlin
Info:
IMDB
Spoken language(s):
English
Uploaded:
2010-10-19T19:34:48+01:00
By:
RHoek-2lions Trusted
Seeders:
0
Leechers:
1
Comments
2
Info Hash:
0e2b888e8d96c38c14041949f37bdc84b722b856
Merlin (2008) S03EP06 XVID (ENG+NL SUBS) RHoek 2Lions-Team picture
FOR ENGLISH, PLEASE SCROLL DOWN!

~~~~~~~~~~~~~~~~~~~~~~~~~~~~~~~~~~~~~~~~~~~~~~~~~~~~~~~~~
VERHAALLIJN:
¯¯¯¯¯¯¯¯¯¯¯¯
Een jaar na haar vlucht uit Camelot, word Morgana gevonden, gehavend en beurs in het woud, ontvoering claimend door bandieten. Oppervlakkig berouwvol en charmant, werkt ze nog steeds voor Morgheuse, voor wie ze tranen verzameld van Pendragon. Deze worden gebruikt om hem te vervloeken en de pop van Mandrake te maken. Deze maakt hem langzaam gek, en als hij begint te hallicuneren, spoken ziend, benadert Morgheuse rivaal Koning Cenred om het gehavende koninkrijk binnen te vallen en als eerste Merlin gevangen te nemen. Deze roept echter de Grote Draak op om hem te bevrijden.

~~~~~~~~~~~~~~~~~~~~~~~~~~~~~~~~~~~~~~~~~~~~~~~~~~~~~~~~~
- Titel: Merlin (2008) S03EP06 XVID (ENG+NL SUBS) RHoek 2Lions-Team
- Bron: .avi
- Genre : Fantasy
- Ondertitelingen: Engels door 'onbekend' & Nederlands door Regeer van Bierdopje.com. Superwerk weer Regeer!

IMDb: www.imdb.com/title/tt1199099/
Officiële website: www.bbc.co.uk/merlin/

~~~~~~~~~~~~~~~~~~~~~~~~~~~~~~~~~~~~~~~~~~~~~~~~~~~~~~~~~
STORY LINE:
¯¯¯¯¯¯¯¯¯¯¯
A year after her flight from Camelot, Morgana is found,dishevelled and bruised in the forest,claiming abduction by bandits. Superficially contrite and charming,she is still in league with Morghause,for whom she collects tears shed by Pendragon. These are used to curse him and fashion a doll from mandrake,which Morgana places under his bed.It slowly starts to drive him mad and, as he begins to hallucinate,seeing ghosts,Morghause approaches rival king Cenred to invade the weakened kingdom,having first taken Merlin prisoner. However Merlin summons the Great Dragon to come and free him.

~~~~~~~~~~~~~~~~~~~~~~~~~~~~~~~~~~~~~~~~~~~~~~~~~~~~~~~~~
- Title: Merlin (2008) S03EP06 XVID (ENG+NL SUBS) RHoek 2Lions-Team
- Source: .avi
- Genre : Fantasy
- Subtitles: English by 'unknown' & Dutch by Regeer from Bierdopje.com.

IMDb: www.imdb.com/title/tt1199099/
Official website: www.bbc.co.uk/merlin/

~~~~~~~~~~~~~~~~~~~~~~~~~~~~~~~~~~~~~~~~~~~~~~~~~~~~~~~~~
VIDEO AND AUDIO INFORMATION
¯¯¯¯¯¯¯¯¯¯¯¯¯¯¯¯¯¯¯¯¯¯¯¯¯¯¯¯¯¯
Format                           : AVI
Format/Info                      : Audio Video Interleave
File size                        : 351 MiB
Duration                         : 43mn 23s
Overall bit rate                 : 1 130 Kbps
Writing application              : transcode-1.0.7

Video
ID                               : 0
Format                           : MPEG-4 Visual
Format profile                   : Advanced Simple@L5
Format settings, BVOP            : Yes
Format settings, QPel            : No
Format settings, GMC             : No warppoints
Format settings, Matrix          : Default (H.263)
Muxing mode                      : Packed bitstream
Codec ID                         : XVID
Codec ID/Hint                    : XviD
Duration                         : 43mn 23s
Bit rate                         : 987 Kbps
Width                            : 624 pixels
Height                           : 352 pixels
Display aspect ratio             : 16:9
Frame rate                       : 25.000 fps
Color space                      : YUV
Chroma subsampling               : 4:2:0
Bit depth                        : 8 bits
Scan type                        : Progressive
Bits/(Pixel*Frame)               : 0.180
Stream size                      : 306 MiB (87%)
Writing library                  : XviD 1.2.1 (UTC 2008-12-04)

Audio
ID                               : 1
Format                           : MPEG Audio
Format version                   : Version 1
Format profile                   : Layer 3
Mode                             : Joint stereo
Mode extension                   : MS Stereo
Codec ID                         : 55
Codec ID/Hint                    : MP3
Duration                         : 43mn 23s
Bit rate mode                    : Variable
Bit rate                         : 112 Kbps
Channel(s)                       : 2 channels
Sampling rate                    : 48.0 KHz
Bit depth                        : 16 bits
Stream size                      : 40.3 MiB (11%)
Alignment                        : Aligned on interleaves
Interleave, duration             : 24 ms (0.60 video frame)

*****************************************

Brought to you by
2Lions Team

Meer zien??
Kom dan eens kijken op ons forum
 
www.2lions-site.nl

2Lions the site to be for all your Dutch MOVIES and more

******************************************
Files:

Comments

Geweldig! Ontzettend bedankt weer voor het vervolg van deze bijzonder fraaie -en verslavende- serie.
Thanks!
0