Columbus_Neighborhoods_(Short_North)_720p_20110424_TTL 

Columbus_Neighborhoods_(Short_North)_720p_20110424_TTL
:
Video > Highres - TV shows
Size:
1.82 GB
Tag(s):
PBS Columbus Ohio Documentary
Spoken language(s):
English
Uploaded:
2011-07-03T16:40:07+01:00
By:
thetorrentlord VIP
Seeders:
0
Leechers:
2
Comments
0
Info Hash:
01ba9393169088c2ab12a0411d194106a57417c0
These are locally produced specials about historic original neighborhoods in Columbus Ohio.																		************************************************************************************************************************************************************************************************************																											Columbus_Neighborhoods_(Short_North)_720p_20110424_TTL.avi
Format                           : AVI
Format/Info                      : Audio Video Interleave
Format profile                   : OpenDML
File size                        : 1.82 GiB
Duration                         : 56mn 57s
Overall bit rate                 : 2 289 Kbps
Movie name                       : Columbus_Neighborhoods_(Short_North)_720p_20110424_TTL.mpg
Director                         : created.with.SUPER(C).v2010.bld.37
Writing application              : SUPER(C)   

Video
ID                               : 0
Format                           : MPEG-4 Visual
Format profile                   : Simple@L3
Format settings, BVOP            : No
Format settings, QPel            : No
Format settings, GMC             : No warppoints
Format settings, Matrix          : Default (H.263)
Codec ID                         : XVID
Codec ID/Hint                    : XviD
Duration                         : 56mn 57s
Bit rate                         : 4 452 Kbps
Width                            : 1 280 pixels
Height                           : 720 pixels
Display aspect ratio             : 16:9
Frame rate                       : 29.970 fps
Color space                      : YUV
Chroma subsampling               : 4:2:0
Bit depth                        : 8 bits
Scan type                        : Progressive
Bits/(Pixel*Frame)               : 0.161
Stream size                      : 1.77 GiB (97%)
Writing library                  : XviD 1.1.2 (UTC 2006-11-01)

Audio
ID                               : 1
Format                           : MPEG Audio
Format version                   : Version 2
Format profile                   : Layer 3
Mode                             : Joint stereo
Mode extension                   : MS Stereo
Codec ID                         : 55
Codec ID/Hint                    : MP3
Duration                         : 56mn 57s
Bit rate mode                    : Constant
Bit rate                         : 112 Kbps
Channel(s)                       : 2 channels
Sampling rate                    : 22.05 KHz
Stream size                      : 45.6 MiB (2%)
Alignment                        : Aligned on interleaves
Interleave, duration             : 26 ms (0.78 video frame)
Interleave, preload duration     : 26 ms
Writing library                  : LAME3.98UUUUUUUUU™–7
Files:

Comments

0