Kung Fu Panda 2 DVDScr XviD-ZJM 

Kung Fu Panda 2 DVDScr XviD-ZJM
Type:
Video > Movies
Size:
702.34 MB
Info:
IMDB
Uploaded:
2011-08-18T07:00:54+01:00
By:
DibyaTPB VIP
Seeders:
1
Leechers:
0
Comments
6
Info Hash:
7ae97bf09daeafc83c00a92edf9913d764455356
Format                           : AVI
Format/Info                      : Audio Video Interleave / www.imdb.com/title/tt1302011/           
File size                        : 702 MiB
Duration                         : 1h 23mn
Overall bit rate                 : 1 170 Kbps
Writing application              : VirtualDubMod 1.5.10.1 (Build 2366/Release)
Writing library                  : VirtualDubMod Build 2366/Release

Video
ID                               : 0
Format                           : MPEG-4 Visual
Format profile                   : Advanced Simple@L5
Format settings, BVOP            : Yes
Format settings, QPel            : No
Format settings, GMC             : No warppoints
Format settings, Matrix          : Default (H.263)
Muxing mode                      : Packed bitstream
Codec ID                         : XVID
Codec ID/Hint                    : XviD
Duration                         : 1h 23mn
Bit rate                         : 1 030 Kbps
Width                            : 640 pixels
Height                           : 288 pixels
Display aspect ratio             : 2.222
Frame rate                       : 29.970 fps
Resolution                       : 8 bits
Colorimetry                      : 4:2:0
Scan type                        : Progressive
Bits/(Pixel*Frame)               : 0.187
Stream size                      : 618 MiB (88%)
Writing library                  : XviD 1.1.0 (UTC 2005-11-22)

Audio
ID                               : 1
Format                           : MPEG Audio
Format version                   : Version 1
Format profile                   : Layer 3
Format_Settings_Mode             : Joint stereo
Format_Settings_ModeExtension    : MS Stereo
Codec ID                         : 55
Codec ID/Hint                    : MP3
Duration                         : 1h 23mn
Bit rate mode                    : Constant
Bit rate                         : 128 Kbps
Channel(s)                       : 2 channels
Sampling rate                    : 48.0 KHz
Stream size                      : 76.8 MiB (11%)
Alignment                        : Split accross interleaves
Interleave, duration             : 33 ms (1.00 video frame)
Interleave, preload duration     : 500 ms
Writing library                  : LAME3.96.1
Files:

Comments

Dump this on every other site possible! I am currently having some problem, btw enjoy the speed :D
Down ain't all that.. only seeing between 400-600Kbps. maxxed out I get like 2100
`
Its done.
not recommended to download without proper sample
there's chinese audio in some places...
0