Burning.Bright.2010.720p.BRRip.XviD.AC3-PsychoLogic 

Burning.Bright.2010.720p.BRRip.XviD.AC3-PsychoLogic
:
Video > Highres - Movies
Size:
2.18 GB
Tag(s):
720p BRRip XviD AC3
Info:
IMDB
Spoken language(s):
English
Uploaded:
2011-08-20T11:02:34+01:00
By:
PsychoLogic
Seeders:
0
Leechers:
1
Comments
0
Info Hash:
fa60973c2d1772fdd474ab9c9640c9fa3770c3a8
Release Information:

Burning.Bright.2010.720p.BRRip.XviD.AC3-PsychoLogic

Source                           : aaf-burning.bright.2010.720p.bluray.x264
Subtitles                        : Arabic, English, Hungarian, Indonesian, Portuguese, Romanian
Language                         : English
Encoded By                       : PsychoLogic
Sample Included                  : Yes

Movie Information                : www.imdb.com/title/tt1244658/
Genre                            : Drama | Horror | Thriller
Director                         : Carlos Brooks
Cast                             : Briana Evigan, Charlie Tahan and Garret Dillahunt
Plot                             : A thriller centered on a young woman and her autistic little brother who are trapped in a house with a ravenous tiger during a hurricane. 

General
Format                           : AVI
Format/Info                      : Audio Video Interleave
Format profile                   : OpenDML
File size                        : 2.16 GiB
Duration                         : 1h 29mn
Overall bit rate                 : 3 458 Kbps
Writing application              : VirtualDubMod 1.5.10.2 (build 2540/release)
Writing library                  : VirtualDubMod build 2540/release

Video
ID                               : 0
Format                           : MPEG-4 Visual
Format profile                   : Advanced Simple@L5
Format settings, BVOP            : 2
Format settings, QPel            : No
Format settings, GMC             : No warppoints
Format settings, Matrix          : Default (H.263)
Codec ID                         : XVID
Codec ID/Hint                    : XviD
Duration                         : 1h 29mn
Bit rate                         : 2 999 Kbps
Width                            : 1 280 pixels
Height                           : 720 pixels
Display aspect ratio             : 16:9
Frame rate                       : 23.976 fps
Color space                      : YUV
Chroma subsampling               : 4:2:0
Bit depth                        : 8 bits
Scan type                        : Progressive
Compression mode                 : Lossy
Bits/(Pixel*Frame)               : 0.136
Stream size                      : 1.87 GiB (87%)
Writing library                  : XviD 1.2.1 (UTC 2008-12-04)

Audio
ID                               : 1
Format                           : AC-3
Format/Info                      : Audio Coding 3
Mode extension                   : CM (complete main)
Codec ID                         : 2000
Duration                         : 1h 29mn
Bit rate mode                    : Constant
Bit rate                         : 448 Kbps
Channel(s)                       : 6 channels
Channel positions                : Front: L C R, Side: L R, LFE
Sampling rate                    : 48.0 KHz
Bit depth                        : 16 bits
Compression mode                 : Lossy
Stream size                      : 287 MiB (13%)
Alignment                        : Split accross interleaves
Interleave, duration             : 42 ms (1.00 video frame)
Interleave, preload duration     : 500 ms
Files:

Comments

0