Strike Back S02E04 (HDTV 720p DD2.0 ENG+NL Subs) Hornigold TBS 

Strike Back S02E04 (HDTV 720p DD2.0 ENG+NL Subs) Hornigold TBS
Type:
Video > Highres - TV shows
Size:
1.47 GB
Tag(s):
TBS B-Sam Black-Sam Hornigold Strike Back season 2 seizoen 2 hdtv eng subs nl subs
Info:
IMDB
Spoken language(s):
English
Uploaded:
2011-09-17T19:58:38+01:00
By:
Hornigold Trusted
Seeders:
0
Leechers:
2
Comments
2
Info Hash:
26ac27520a1a0632e34c929b05e64c516fcaa5e5
Strike Back S02E04 (HDTV 720p DD2.0 ENG+NL Subs) Hornigold TBS picture
From now on I will only place the video and audio information of the video file up here as well a link to the IMDB site for more information about the series. Why Am I doing this? Because it saves me a lot of time. Information about the quality can be found in the video and audio information and also in the title of the torrent. I only upload episodes in HD quality (or WEB-DL that is HD without the advertisements) or dvd's that have been converted from HD quality (custom dvd's) or retail versions.

More information about this series can be found at IMDB:  www.imdb.com/title/tt1492179/

Video and audio information:
~~~~~~~~~~~~~~~~~~~~~~
Format                           : Matroska
Format version                   : Version 2
File size                        : 1.47 GiB
Duration                         : 47mn 0s
Overall bit rate                 : 4 470 Kbps
Encoded date                     : UTC 2011-09-07 16:08:34
Writing application              : mkvmerge v3.0.0 ('Hang up your Hang-Ups') built on Apr 19 2010 11:58:49
Writing library                  : libebml v0.7.7 + libmatroska v0.8.1

Video
ID                               : 1
Format                           : AVC
Format/Info                      : Advanced Video Codec
Format profile                   : High@L4.1
Format settings, CABAC           : Yes
Format settings, ReFrames        : 8 frames
Codec ID                         : V_MPEG4/ISO/AVC
Duration                         : 47mn 0s
Bit rate                         : 3 997 Kbps
Width                            : 1 280 pixels
Height                           : 720 pixels
Display aspect ratio             : 16:9
Frame rate                       : 23.976 fps
Color space                      : YUV
Chroma subsampling               : 4:2:0
Bit depth                        : 8 bits
Scan type                        : Progressive
Bits/(Pixel*Frame)               : 0.181
Stream size                      : 1.31 GiB (89%)
Writing library                  : x264 core 116 r2074 2641b9e
Encoding settings                : cabac=1 / ref=8 / deblock=1:-2:-2 / analyse=0x3:0x133 / me=umh / subme=9 / psy=1 / psy_rd=1.00:0.00 / mixed_ref=1 / me_range=24 / chroma_me=1 / trellis=1 / 8x8dct=1 / cqm=0 / deadzone=21,11 / fast_pskip=0 / chroma_qp_offset=-2 / threads=6 / sliced_threads=0 / nr=0 / decimate=1 / interlaced=0 / bluray_compat=0 / constrained_intra=0 / bframes=5 / b_pyramid=2 / b_adapt=2 / b_bias=0 / direct=3 / weightb=1 / open_gop=0 / weightp=2 / keyint=250 / keyint_min=23 / scenecut=40 / intra_refresh=0 / rc_lookahead=60 / rc=crf / mbtree=1 / crf=18.0 / qcomp=0.60 / qpmin=0 / qpmax=69 / qpstep=4 / ip_ratio=1.40 / aq=1:1.00
Language                         : English

Audio
ID                               : 2
Format                           : AC-3
Format/Info                      : Audio Coding 3
Mode extension                   : CM (complete main)
Codec ID                         : A_AC3
Duration                         : 47mn 0s
Bit rate mode                    : Constant
Bit rate                         : 384 Kbps
Channel(s)                       : 2 channels
Channel positions                : Front: L R
Sampling rate                    : 48.0 KHz
Bit depth                        : 16 bits
Compression mode                 : Lossy
Stream size                      : 129 MiB (9%)


Stop by at our forum at:  black-sam.org
Kom ook eens kijken op ons gezellige forum:  black-sam.org
Files:

Comments

toppie bedankt
de resterende delen aub,dit is een absolute topserie bvd
0