Tinker Tailor Soldier Spy 2011 R5 DVDRip XviD AC3-26K 

Tinker Tailor Soldier Spy 2011 R5 DVDRip XviD AC3-26K
:
Video > Movies
Size:
1.18 GB
Info:
IMDB
Spoken language(s):
English
Uploaded:
2012-01-06T18:11:33+00:00
By:
froggie100 VIP
Seeders:
114
Leechers:
10
Comments
97
Info Hash:
7270c0b12de6b3807545478295851cb0e4ce2071
Tinker Tailor Soldier Spy 2011 R5 DVDRip XviD AC3-26K picture

[code]
Tinker Tailor Soldier Spy 2011 R5 DVDRip XviD AC3-26K

Imdb: 
www.imdb.com/title/tt1340800/

Plot:
In the bleak days of the Cold War, espionage veteran George Smiley is forced from semi-retirement to uncover a Soviet agent within MI6's echelons.

Sources:
LUMX1 FOR DVDR!!!

Notes:
VERY GOOD VIDEO AND AUDIO! ENJOY!!

Greetz:
Xtreme Encode|FYA|ILLUMANTI|CM8|RX|VISION|HDSCENE|NIGHTMAREZ|xTriLL|DTRG|CRYS|REMIXHD|BIDA|RX|REFILL| INSPiRAL|SIC
To all the people who have helped me :P you know who you are

Anything to offer email us @: 26k@hushmail.me

Video
ID                                       : 0
Format                                   : MPEG-4 Visual
Format profile                           : Advanced Simple@L5
Format settings, BVOP                    : 2
Format settings, QPel                    : No
Format settings, GMC                     : No warppoints
Format settings, Matrix                  : Default (H.263)
Muxing mode                              : Packed bitstream
Codec ID                                 : XVID
Codec ID/Hint                            : XviD
Duration                                 : 2h 2mn
Bit rate                                 : 953 Kbps
Width                                    : 720 pixels
Height                                   : 300 pixels
Display aspect ratio                     : 2.40:1
Frame rate                               : 25.000 fps
Color space                              : YUV
Chroma subsampling                       : 4:2:0
Bit depth                                : 8 bits
Scan type                                : Progressive
Compression mode                         : Lossy
Bits/(Pixel*Frame)                       : 0.176
Stream size                              : 832 MiB (71%)
Writing library                          : XviD 1.2.1 (UTC 2008-12-04)

Audio
ID                                       : 1
Format                                   : AC-3
Format/Info                              : Audio Coding 3
Mode extension                           : CM (complete main)
Codec ID                                 : 2000
Duration                                 : 2h 2mn
Bit rate mode                            : Constant
Bit rate                                 : 384 Kbps
Channel(s)                               : 6 channels
Channel positions                        : Front: L C R, Side: L R, LFE
Sampling rate                            : 48.0 KHz
Bit depth                                : 16 bits
Compression mode                         : Lossy
Stream size                              : 335 MiB (28%)
Alignment                                : Aligned on interleaves
Interleave, duration                     : 32 ms (0.80 video frame)
Interleave, preload duration             : 32 ms

[/code]
Screens:






#
Thank you smallz for banner!
Files:

Comments

A10 V10 M Soooooo boring and bleak. George Smiley ,don't be fooled by the name, there are no laughs here.
so many talented actors, great cast and such an awful movie. couldn't finish it. I wanted to kill both director of photography and the guy responsible for the lighting. the sound quality is also bad - it jumps from very loud to the one you can hardly hear. but maybe that last one is the problem of that particular copy. all in all - don't waste your time
Boring!
how to play the video with the downloaded subtitle? does it need specific player?what is it?
@Onstarring I'm failrly certain the people in the know (tech industry people) believe 3D tv to be a fad that will be gone in a year or two. If you have money to waste, fine, but if you have to wait for a sale then you are just throwing your money away.
@Onstarring Hold off on the 3D tv, glasses free 3D is about to enter the scene, they've been demoing them at shows like CES.
A&V = 10 Movie = 5.
A: 10 V: 10 M: 9 Loved it! What a spy drama should be like, but probably not for youger audiences
Who Says It's Quality is, V-10 A-10 it's looks terrible in widescreen even at my laptop. Awful. V-8 A-9. It Disappoints me, I's so expected. Lets' Search for New print Over the TPB.
@ruxp1n get a decent set of speakers and you're all set, thanks for the upload froggie100
Super best ever movie ive ever seen in my whole life hahahah it made me sleep while watching it..waste of time,bandwidth everthing is a crap A-9 V-9 M- -100
Certainly a very specific type of movie for a specific type of people. I wouldn't call it "boring" though. It's all up to personal taste. Thanks for the upload.
Snore-fest! fell asleep in the first 10 min. Downloading it was more exciting.
I can see why people think this movie is boring. You have to listen well and use your brain, which is more demanding for some than others. Try Transformers 3 if this strains your intellect and patience ... otherwise, prepare for a fairly brilliant spy movie
BTW I also found it to be a bit quiet ... use VLC player and you can boost volume to 200% ... also there are settings you can change in windows to increase overall volume but I wont go into that here :) And don't panic over no subtitles it doesn't ruin the film!
omg this movie suck as a cam and still isnt on dvd i'm a huge gary oldman fan, but this movie is as slow as a british porn
This movie was drier than a nun's nasty.
terrible movie
thx!!
Thnx to the uploader! Movie was OK as i expected it to be! Storyline is intelligent and entertaining and acters were OK! I usually watch all the movies at film.raeshashop.com because they have HD's but they didn't have this one so im happy to have piratebay :) Good torrent quality - A9 V9,
best spam I have ever seen. Great torrent. Best spam^ totally worth it.
1 2 3 4