John Carter 2012 480P TS READNFO XviD AC3-26K 

John Carter 2012 480P TS READNFO XviD AC3-26K
Type:
Video > Movies
Size:
1.69 GB
Tag(s):
John Carter 2012 480P TS READN
Info:
IMDB
Uploaded:
2012-03-18T15:10:13+00:00
By:
MisterNobody VIP
Seeders:
4
Leechers:
0
Comments
16
Info Hash:
fef777703abd1422da27569b69dcd6fc01b657c6
John Carter 2012 480P TS READNFO XviD AC3-26K picture
John Carter 2012 480P TS READNFO XviD AC3-26K

Imdb: 
www.imdb.com/title/tt0401729/

Plot:
Transplanted to Mars, a Civil War vet discovers a lush planet inhabited by 12-foot tall barbarians. Finding himself a prisoner of these creatures, he escapes, only to encounter a princess who is in desperate need of a savior.

Sources:
VIDEO- A FRIEND- THNXS MAN 
AUDIO- INSPIRAL/ UNKNOWN! THNXS GUYZ!
SUBS-  YES ENGLISH WHEN NEEDED... CHECK SRT SUBS ...

Notes:
Readnfo well the audio used was from inspirals/ unknowns release.... the line had repeared scenes in it was cut a lot !.... so for the last 36minutes cam audio of the inspial release has been used the rest is line!....the video is very good... we were given the hd files so here is the 480p !.... the video was recorded on slight slant... so i rotated.. cropped and filtered the video....Some camera movement in few places other than out enjoy! peace .x 

720P SOON...

Greetz:
Xtreme Encode|FYA|ILLUMANTI|CM8|RX|VISION|HDSCENE|NIGHTMAREZ|xTriLL|DTRG|CRYS|REMIXHD|BIDA|RX|REFILL|INSPiRAL|SIC|ZOMBIESZ|HOPE|Anonymous|GooN|P76|MIRAGE

To all the people who have helped me  you know who you are

Anything to offer email us @: 26k@hushmail.me

Video
ID                                       : 0
Format                                   : MPEG-4 Visual
Format profile                           : Advanced Simple@L5
Format settings, BVOP                    : 2
Format settings, QPel                    : No
Format settings, GMC                     : No warppoints
Format settings, Matrix                  : Default (H.263)
Codec ID                                 : XVID
Codec ID/Hint                            : XviD
Duration                                 : 2h 2mn
Bit rate                                 : 1 600 Kbps
Width                                    : 720 pixels
Height                                   : 304 pixels
Display aspect ratio                     : 2.35:1
Frame rate                               : 25.000 fps
Color space                              : YUV
Chroma subsampling                       : 4:2:0
Bit depth                                : 8 bits
Scan type                                : Progressive
Compression mode                         : Lossy
Bits/(Pixel*Frame)                       : 0.292
Stream size                              : 1.37 GiB (83%)
Writing library                          : XviD 64

Audio
ID                                       : 1
Format                                   : AC-3
Format/Info                              : Audio Coding 3
Mode extension                           : CM (complete main)
Codec ID                                 : 2000
Duration                                 : 2h 2mn
Source duration                          : 2h 2mn
Bit rate mode                            : Constant
Bit rate                                 : 320 Kbps
Channel(s)                               : 2 channels
Channel positions                        : Front: L R
Sampling rate                            : 44.1 KHz
Bit depth                                : 16 bits
Compression mode                         : Lossy
Stream size                              : 280 MiB (17%)
Alignment                                : Aligned on interleaves
Interleave, duration                     : 40 ms (1.00 video frame)
Files:

Comments

thnxs for the up :D nice to see you adding ups when i cannot get onto pirate bay thnxs bro !
@froggie100 Thank you for the support froggie :) Cheers Bro :D
i cant get into piratebay either.. everytime i try it says server overload come back in minute.. somthing like that anyways is what it says.. when i click brows recent torrents i can do that but when i type any movie name it wont let me in!!!!mmmm
same here,can only access recent torrents nothing else????
What are the A/V ratings?
pretty much the same as the previews uploads.
GOOD?
Bad movie. Not fault of the uploader.
Comments about the quality of the torrent would be appreciated. If we want a review about the movie though, we'll go to IMDB, thank you very much!
Will Someone PLEASE just say if this copy is any good, or not. Nobody's interested in anything else.
sais its a cam in the description. use your eyes guys
Fuck!!! Why is it people just don't use their heads? There's a sample there, download the fucker, have a look, come back and give an a/v instead of pissing and moaning...fuck!!!
Wouldn't ya know it...7 minutes to download the sample, take a peek and all credit to the uploader but I'm fussy, got crappy eyes so I'll give it an a/v of 7/8. How hard was that?
Oh...and thank you OneFourOne, much appreciated...
thanks man... very good imagen... thanks again.
video fine, but audio is all chopped up.
1