Air Force One-720p MP4 AAC x264 BRRip 1997-CC 

Air Force One-720p MP4 AAC x264 BRRip 1997-CC
Type:
Video > Highres - Movies
Size:
2.24 GB
Tag(s):
Multisubs 720p BRRip
Info:
IMDB
Spoken language(s):
English
Uploaded:
2012-04-03T14:02:24+01:00
By:
Caveman44 Trusted
Seeders:
1
Leechers:
0
Comments
2
Info Hash:
c9a80a0323877df200c3b691d90d611b4a1bfd0c
Air Force One-720p MP4 AAC x264 BRRip 1997-CC picture
Source: Air.Force.One.1997.1080p.BluRay.x264-BestHD

Subs: Arabic, Bulgarian, Danish, Dutch, English, French, Greek, Indonesian, Norwegian, Polish, Portuguese, Slovenian, Spanish, Swedish, Turkish and Vietnamese.

Sample and Screens included.

General
Complete name                    : Air Force One-720p MP4 AAC x264 BRRip 1997-CC.mp4
Format                           : MPEG-4
Format profile                   : Base Media
Codec ID                         : isom
File size                        : 2.21 GiB
Duration                         : 2h 4mn
Overall bit rate                 : 2 539 Kbps
Encoded date                     : UTC 2012-04-02 09:09:52

Video
ID                               : 1
Format                           : AVC
Format/Info                      : Advanced Video Codec
Format profile                   : High@L3.1
Format settings, CABAC           : Yes
Format settings, ReFrames        : 5 frames
Codec ID                         : avc1
Codec ID/Info                    : Advanced Video Coding
Duration                         : 2h 4mn
Bit rate mode                    : Variable
Bit rate                         : 2 151 Kbps
Nominal bit rate                 : 2 171 Kbps
Maximum bit rate                 : 29.8 Mbps
Width                            : 1 280 pixels
Height                           : 528 pixels
Display aspect ratio             : 2.40:1
Frame rate mode                  : Variable
Frame rate                       : 23.976 fps
Minimum frame rate               : 23.810 fps
Maximum frame rate               : 24.390 fps
Resolution                       : 24 bits
Colorimetry                      : 4:2:0
Scan type                        : Progressive
Bits/(Pixel*Frame)               : 0.133
Stream size                      : 1.87 GiB (85%)
Writing library                  : x264 core 112

Audio
ID                               : 2
Format                           : AAC
Format/Info                      : Advanced Audio Codec
Format version                   : Version 4
Format profile                   : LC
Format settings, SBR             : No
Codec ID                         : 40
Duration                         : 2h 4mn
Bit rate mode                    : Variable
Bit rate                         : 384 Kbps
Maximum bit rate                 : 485 Kbps
Channel(s)                       : 6 channels
Channel positions                : Front: L C R, Rear: L R, LFE
Sampling rate                    : 48.0 KHz
Resolution                       : 16 bits
Stream size                      : 342 MiB (15%)
Files:

Comments

well what can i say man?.... again, thank you so much for this, and for more to come.
guys seed please.....been doing this for alomost 3 weeks now im only at 49%. this is a very good movie so kindly seed. thanks
0