Claudio Baglioni - alé-oó (live) - 1982 [CD2] 

Claudio Baglioni - alé-oó (live) - 1982 [CD2]
:
Audio > Other
Size:
329.6 MB
Uploaded:
2012-04-04T12:32:59+01:00
By:
nikita200 VIP
Seeders:
1
Leechers:
1
Comments
2
Info Hash:
a8dac1c5f0b3d3450ad42870f061f06f32391c0e
Claudio Baglioni - alé-oó (live) - 1982 [CD2] picture
[LOSLESS] Italian Pop - EAC - covers - wv - HQ Scan EAC - covers - wv - HQ Scan

Release date - 20 Dicembre 1982

Casa Editrice - CBS

Covers: 600 dpi

CD2

01. Notti - 4:32
02. I vecchi - 5:11
03. Via - 6:36
04. Medley - 10:57 (Amore bello - Solo - Sabato pomeriggio - Buona fortuna)
05. Quanto ti voglio - 2:50
06. Avrai - 5:24
07. Questo piccolo grande amore - 2:36
08. Con tutto l"amore che posso - 2:26
09. Un po" di più - 2:51
10. Signora Lia - 3:39
11. Strada facendo - 5:19
12. Alé-oó - 2:40
Files:

Comments

Exact Audio Copy V0.99 prebeta 3 from 28. July 2007 EAC extraction logfile from 9. October 2007, 14:34 Claudio Baglioni / Alé-Oó CD2 Used drive : ATAPI-CDROM-DRIVE-52MAX Adapter: 1 ID: 1 Read mode : Secure Utilize accurate stream : Yes Defeat audio cache : Yes Make use of C2 pointers : No Combined read/write offset correction : 0 Overread into Lead-In and Lead-Out : No Fill up missing offset samples with silence : Yes Delete leading and trailing silent blocks : No Null samples used in CRC calculations : No Used interface : Installed external ASPI interface Used output format : User Defined Encoder Selected bitrate : 128 kBit/s Quality : High Add ID3 tag : Yes Command line compressor : C:ProgrammiExact Audio Copywavpack.exe Additional command line options : -h -m -w "Artist=%a" -w "Title=%t" -w "Album=%g" -w "Year=%y" -w "Track=%n" -w "Genre=%m" %s %d TOC of the extracted CD Track | Start | Length | Start sector | End sector --------------------------------------------------------- 1 | 0:00.00 | 4:32.60 | 0 | 20459 2 | 4:32.60 | 5:11.62 | 20460 | 43846 3 | 9:44.47 | 6:36.23 | 43847 | 73569 4 | 16:20.70 | 10:57.15 | 73570 | 122859 5 | 27:18.10 | 2:50.72 | 122860 | 135681 6 | 30:09.07 | 5:24.28 | 135682 | 160009 7 | 35:33.35 | 2:36.15 | 160010 | 171724 8 | 38:09.50 | 2:26.62 | 171725 | 182736 9 | 40:36.37 | 2:51.58 | 182737 | 195619 10 | 43:28.20 | 3:39.45 | 195620 | 212089 11 | 47:07.65 | 5:19.12 | 212090 | 236026 12 | 52:27.02 | 2:40.10 | 236027 | 248036 Range status and errors Selected range Filename D:Claudio Baglioni - Alé-Oó CD2.wav Peak level 96.8 % Range quality 100.0 % Copy CRC 37447048 Copy OK No errors occurred End of status report
CD1: http://thepiratebay.se/torrent/7157056/Claudio_Baglioni_-_al_amp_eacute_-o_amp_oacute__(live)_-_1982_[CD1]
0