Birdsong_(Masterpiece_Classic)_720p.HDTV.x264_TTL 

Birdsong_(Masterpiece_Classic)_720p.HDTV.x264_TTL
Type:
Video > Highres - TV shows
Size:
1.78 GB
Tag(s):
BBC PBS Birdsong
Spoken language(s):
English
Uploaded:
2012-04-24T17:13:46+01:00
By:
thetorrentlord VIP
Seeders:
0
Leechers:
1
Comments
0
Info Hash:
ba8b50415d3a05064aa07383726ae1a8813b0776
This is from the US PBS broadcast from 4-22-2012.																														                                                         Part one.                           																															                                                                                           Enjoy and please share.																																	                            TTLTTLTTLTTLTTLTTLTTLTTLTTLTTLTTLTTLTTLTTLTTLTTLTTLTTLTTL																																								                    Birdsong_(Masterpiece_Classic)_720p.HDTV.x264_TTL.mkv
Format                           : Matroska
File size                        : 1.71 GiB
Duration                         : 1h 20mn
Overall bit rate                 : 3 048 Kbps
Writing application              : HandBrake 0.9.5
Writing library                  : libmkv 0.6.4.1

Video
ID                               : 1
Format                           : AVC
Format/Info                      : Advanced Video Codec
Format profile                   : High@L3.1
Format settings, CABAC           : Yes
Format settings, ReFrames        : 4 frames
Muxing mode                      : Container profile=Unknown@3.1
Codec ID                         : V_MPEG4/ISO/AVC
Duration                         : 1h 20mn
Bit rate                         : 2 763 Kbps
Nominal bit rate                 : 2 818 Kbps
Width                            : 1 280 pixels
Height                           : 720 pixels
Display aspect ratio             : 16:9
Frame rate mode                  : Variable
Frame rate                       : 29.970 fps
Resolution                       : 8 bits
Colorimetry                      : 4:2:0
Scan type                        : Progressive
Bits/(Pixel*Frame)               : 0.100
Stream size                      : 1.55 GiB (91%)
Writing library                  : x264 core 112


Audio
ID                               : 2
Format                           : AC-3
Format/Info                      : Audio Coding 3
Codec ID                         : A_AC3
Duration                         : 1h 20mn
Bit rate mode                    : Constant
Bit rate                         : 224 Kbps
Channel(s)                       : 2 channels
Channel positions                : L R
Sampling rate                    : 48.0 KHz
Stream size                      : 128 MiB (7%)
Files:

Comments

0