Doomsday.Preppers.S01E12.Extreme.Prep.Edition.HDTV.XviD-k3n 

Doomsday.Preppers.S01E12.Extreme.Prep.Edition.HDTV.XviD-k3n
:
Video > TV shows
Size:
348.54 MB
Tag(s):
Doomsday Preppers Doomsday Prepper Survival Bug Out Bag Zombies
Info:
IMDB
Spoken language(s):
English
Uploaded:
2012-04-25T10:19:51+01:00
By:
k3nd00d Trusted
Seeders:
0
Leechers:
1
Comments
0
Info Hash:
c64c642a7a228a615e15b5b7ebbf28c28c0bbe80
Doomsday.Preppers.S01E12.Extreme.Prep.Edition.HDTV.XviD-k3n picture
NO AUDIO PROBLEMS, CAPTURED MYSELF.

 
channel.nationalgeographic.com/channel/doomsday-preppers/
   
channel.nationalgeographic.com/channel/doomsday-preppers/episode-guide/
  
thetvdb.com/?tab=seasonall&id=255608&lid=7



General
Format                           : AVI
Format/Info                      : Audio Video Interleave
File size                        : 349 MiB
Duration                         : 45mn 9s
Overall bit rate                 : 1 079 Kbps

Video
ID                               : 0
Format                           : MPEG-4 Visual
Format profile                   : Advanced Simple@L5
Format settings, BVOP            : 1
Format settings, QPel            : No
Format settings, GMC             : No warppoints
Format settings, Matrix          : Default (H.263)
Muxing mode                      : Packed bitstream
Codec ID                         : XVID
Codec ID/Hint                    : XviD
Duration                         : 45mn 9s
Bit rate                         : 936 Kbps
Width                            : 624 pixels
Height                           : 352 pixels
Display aspect ratio             : 16:9
Frame rate                       : 29.970 fps
Color space                      : YUV
Chroma subsampling               : 4:2:0
Bit depth                        : 8 bits
Scan type                        : Progressive
Compression mode                 : Lossy
Bits/(Pixel*Frame)               : 0.142
Stream size                      : 302 MiB (87%)

Audio
ID                               : 1
Format                           : MPEG Audio
Format version                   : Version 1
Format profile                   : Layer 3
Mode                             : Joint stereo
Mode extension                   : MS Stereo
Codec ID                         : 55
Codec ID/Hint                    : MP3
Duration                         : 45mn 9s
Bit rate mode                    : Constant
Bit rate                         : 128 Kbps
Channel(s)                       : 2 channels
Sampling rate                    : 48.0 KHz
Compression mode                 : Lossy
Stream size                      : 41.3 MiB (12%)
Alignment                        : Aligned on interleaves
Interleave, duration             : 34 ms (1.01 video frame)
Interleave, preload duration     : 408 ms
Files:

Comments

0