Gattaca [1997] 720p BRRip H264 AC3 - CODY 

Gattaca [1997] 720p BRRip H264 AC3 - CODY
:
Video > Highres - Movies
Size:
1.6 GB
Tag(s):
Drama Romance Sci-Fi Thriller Andrew Niccol Ethan Hawke Uma Thurman Jude Law Dream Police Space Travel Accident Future Oscar Nominared for Oscar
Info:
IMDB
Spoken language(s):
English
Uploaded:
2012-04-26T16:28:21+01:00
By:
CODYBOSS1969 VIP
Seeders:
2
Leechers:
0
Comments
0
Info Hash:
ea12a126f251118c0db6f4dec1ec1e9d2829b264
General
Complete name                            : Gattaca [1997] 720p BRRip H264 AC3 - CODY.mp4
Format                                   : MPEG-4
Format profile                           : Base Media
Codec ID                                 : isom
File size                                : 1.60 GiB
Duration                                 : 1h 46mn
Overall bit rate mode                    : Variable
Overall bit rate                         : 2 151 Kbps
Encoded date                             : UTC 2012-04-03 18:24:39

Video
ID                                       : 1
Format                                   : AVC
Format/Info                              : Advanced Video Codec
Format profile                           : High@L4.1
Format settings, CABAC                   : Yes
Format settings, ReFrames                : 5 frames
Codec ID                                 : avc1
Codec ID/Info                            : Advanced Video Coding
Duration                                 : 1h 46mn
Bit rate mode                            : Variable
Bit rate                                 : 1 700 Kbps
Maximum bit rate                         : 20.0 Mbps
Width                                    : 1 280 pixels
Height                                   : 536 pixels
Display aspect ratio                     : 2.40:1
Frame rate mode                          : Constant
Frame rate                               : 23.976 fps
Color space                              : YUV
Chroma subsampling                       : 4:2:0
Bit depth                                : 8 bits
Scan type                                : Progressive
Bits/(Pixel*Frame)                       : 0.103
Stream size                              : 1.26 GiB (79%)
Writing library                          : x264 core 119 r2106 07efeb4
Encoding settings                        : rc=2pass

Audio
ID                                       : 2
Format                                   : AC-3
Format/Info                              : Audio Coding 3
Mode extension                           : CM (complete main)
Codec ID                                 : ac-3
Duration                                 : 1h 46mn
Bit rate mode                            : Constant
Bit rate                                 : 448 Kbps
Channel(s)                               : 6 channels
Channel positions                        : Front: L C R, Side: L R, LFE
Sampling rate                            : 48.0 KHz
Bit depth                                : 16 bits
Compression mode                         : Lossy
Stream size                              : 341 MiB (21%)



IMDB link:                                 www.imdb.com/title/tt0119177/



Subtitles included                      : Romanian



Please seed at least 1,5:1 . This way this torrent has a chnece to survive !



Thanks . Enjoy !!
Files:

Comments

0