The Legend of Korra - S01E04 - 720p 

The Legend of Korra - S01E04 - 720p
Type:
Video > Other
Size:
271.89 MB
Tag(s):
korra episode release 720p
Uploaded:
2012-04-27T05:11:20+01:00
By:
JKarien
Seeders:
1
Leechers:
0
Comments
14
Info Hash:
776b68910663effb709f9fdce1ff55bed938e4d3
General

Format                           : MPEG-4
Format profile                   : Base Media / Version 2
Codec ID                         : mp42
File size                        : 272 MiB
Duration                         : 23mn 17s
Overall bit rate                 : 1 633 Kbps
Writing application              : HandBrake rev3736 2011072299

Video
ID                               : 1
Format                           : AVC
Format/Info                      : Advanced Video Codec
Format profile                   : High@L3.1
Format settings, CABAC           : Yes
Format settings, ReFrames        : 3 frames
Codec ID                         : avc1
Codec ID/Info                    : Advanced Video Coding
Duration                         : 23mn 16s
Bit rate mode                    : Variable
Bit rate                         : 1 500 Kbps
Width                            : 1 280 pixels
Height                           : 720 pixels
Display aspect ratio             : 16:9
Frame rate mode                  : Variable
Frame rate                       : 29.970 fps
Minimum frame rate               : 29.412 fps
Maximum frame rate               : 30.303 fps
Color space                      : YUV
Chroma subsampling               : 4:2:0
Bit depth                        : 8 bits
Scan type                        : Progressive
Bits/(Pixel*Frame)               : 0.054
Stream size                      : 246 MiB (90%)
Writing library                  : x264 core 112
Color primaries                  : BT.709-5, BT.1361, IEC 61966-2-4, SMPTE RP177
Transfer characteristics         : BT.709-5, BT.1361
Matrix coefficients              : BT.709-5, BT.1361, IEC 61966-2-4 709, SMPTE RP177

Audio
ID                               : 2
Format                           : AAC
Format/Info                      : Advanced Audio Codec
Format profile                   : LC
Codec ID                         : 40
Duration                         : 23mn 17s
Bit rate mode                    : Variable
Bit rate                         : 152 Kbps
Maximum bit rate                 : 208 Kbps
Channel(s)                       : 2 channels
Channel positions                : Front: L R
Sampling rate                    : 44.1 KHz
Compression mode                 : Lossy
Stream size                      : 25.3 MiB (9%)
Files:

Comments

Stuck at 38.4% :(
same, whats up with that?
seed, please
Needs seeds :(
PLEASE SEED. stuck at 79.5
Stuck at 80.1, please turn all of your upload speeds up...
whats the source on the file? Is a WEB rip from online or is it from HDTV?
not sure, but I've looked at what I've downloaded so far, and it is brilliant. very good quality. just want it downloaded already haha
seeeeeddd!
"Stuck" at 92.2%! Downloading at 0.9kb/s
stuck at 99.6% (V) (°,,,,°) (V)
We're at 100% now. Plenty of seeders by the looks of things. Audio and video are good.
it's real thanks @JKarien
This one has better quality than the other. I'll be seeding for a while, thanks!
1