Alvin.y.Las.Ardillas.3.BRRip.720p.Latino.Ingles.Xvid.AC3.sutorre 

Alvin.y.Las.Ardillas.3.BRRip.720p.Latino.Ingles.Xvid.AC3.sutorre
Type:
Video > Highres - Movies
Size:
2.32 GB
Tag(s):
Alvin Las Ardillas Alvin y Las Ardillas Alvin y Las Ardillas 3 720 720p Latino sutorrent
Info:
IMDB
Spoken language(s):
Spanish
Uploaded:
2012-05-06T22:41:24+01:00
By:
sutorrent
Seeders:
0
Leechers:
2
Comments
1
Info Hash:
d677342df181c00d704a5f10c339bbe7a936c1e5
Alvin.y.Las.Ardillas.3.BRRip.720p.Latino.Ingles.Xvid.AC3.sutorre picture
General
Format                           : AVI
Format/Info                      : Audio Video Interleave
Format profile                   : OpenDML
File size                        : 2.32 GiB
Duration                         : 1h 27mn
Overall bit rate                 : 3 817 Kbps
Director                         : thepiratebay.se/user/sutorrent
Copyright                        : thepiratebay.se/user/sutorrent
Contact                          : solicita.utorrent@gmail.com

Video
ID                               : 0
Format                           : MPEG-4 Visual
Format profile                   : Advanced Simple@L5
Format settings, BVOP            : Yes
Format settings, QPel            : No
Format settings, GMC             : No warppoints
Format settings, Matrix          : Default (H.263)
Codec ID                         : XVID
Codec ID/Hint                    : XviD
Duration                         : 1h 27mn
Bit rate                         : 2 967 Kbps
Width                            : 1 280 pixels
Height                           : 688 pixels
Display aspect ratio             : 1.860
Frame rate                       : 23.976 fps
Color space                      : YUV
Chroma subsampling               : 4:2:0
Bit depth                        : 8 bits
Scan type                        : Progressive
Bits/(Pixel*Frame)               : 0.141
Stream size                      : 1.81 GiB (78%)
Writing library                  : XviD 1.2.1 (UTC 2008-12-04)

Audio Latino #1
ID                               : 1
Format                           : AC-3
Format/Info                      : Audio Coding 3
Format profile                   : Dolby Digital
Mode extension                   : CM (complete main)
Codec ID                         : 2000
Duration                         : 1h 27mn
Bit rate mode                    : Constant
Bit rate                         : 192 Kbps
Channel(s)                       : 2 channels
Channel positions                : Front: L R
Sampling rate                    : 48.0 KHz
Bit depth                        : 16 bits
Stream size                      : 120 MiB (5%)
Alignment                        : Split accross interleaves
Interleave, duration             : 42 ms (1.00 video frame)
Interleave, preload duration     : 500 ms

Audio Ingles #2
ID                               : 2
Format                           : AC-3
Format/Info                      : Audio Coding 3
Mode extension                   : CM (complete main)
Codec ID                         : 2000
Duration                         : 1h 27mn
Bit rate mode                    : Constant
Bit rate                         : 640 Kbps
Channel(s)                       : 6 channels
Channel positions                : Front: L C R, Side: L R, LFE
Sampling rate                    : 48.0 KHz
Bit depth                        : 16 bits
Stream size                      : 399 MiB (17%)
Alignment                        : Split accross interleaves
Interleave, duration             : 42 ms (1.00 video frame)
Interleave, preload duration     : 500 ms
Files:

Comments

Pido disculpa pero este torrent tiene un error, no bajar.
0