The.Borgias.S02E05.HDTV.XviD-Atilla82 

The.Borgias.S02E05.HDTV.XviD-Atilla82
Type:
Video > TV shows
Size:
400.58 MB
Tag(s):
The Borgias atilla82 tv series history
Info:
IMDB
Spoken language(s):
English
Uploaded:
2012-05-11T13:33:42+01:00
By:
Atilla82 Trusted
Seeders:
0
Leechers:
1
Comments
1
Info Hash:
b26cdfa9c83d9180c5bb33c4cc318587549e1a13
The Borgias S02E05 HDTV XviD Atilla82




The Borgias (2011)

The saga of a crime family in 1492 Italy.
 
www.imdb.com/title/tt1582457/




language: English

screenshots included in torrent




General
Complete name : The.Borgias.S02E05.HDTV.XviD-Atilla82.avi
Format : AVI
Format/Info : Audio Video Interleave
File size : 400 MiB
Duration : 53mn 18s
Overall bit rate : 1 050 Kbps
Writing application : Lavf52.61.0
Video
ID : 0
Format : MPEG-4 Visual
Format profile : Advanced Simple@L5
Format settings, BVOP : No
Format settings, QPel : Yes
Format settings, GMC : No warppoints
Format settings, Matrix : Default (H.263)
Codec ID : XVID
Codec ID/Hint : XviD
Duration : 53mn 17s
Bit rate : 910 Kbps
Width : 680 pixels
Height : 380 pixels
Display aspect ratio : 16:9
Frame rate : 23.976 fps
Color space : YUV
Chroma subsampling : 4:2:0
Bit depth : 8 bits
Scan type : Progressive
Compression mode : Lossy
Bits/(Pixel*Frame) : 0.147
Stream size : 347 MiB (87%)
Writing library : XviD 64
Audio
ID : 1
Format : MPEG Audio
Format version : Version 1
Format profile : Layer 3
Codec ID : 55
Codec ID/Hint : MP3
Duration : 53mn 18s
Bit rate mode : Constant
Bit rate : 128 Kbps
Channel(s) : 2 channels
Sampling rate : 48.0 KHz
Compression mode : Lossy
Stream size : 48.8 MiB (12%)
Alignment : Aligned on interleaves
Interleave, duration : 24 ms (0.58 video frame)



SCREENSHOTS 
Files:

Comments

Thank you for the upload
0