Slipknot (1999) - CD remaster by MC Lurken 24-bit 96kHz flac 

Slipknot (1999) - CD remaster by MC Lurken 24-bit 96kHz flac
Type:
Audio > FLAC
Size:
1.62 GB
Tag(s):
24-bit 96kHz flac
Uploaded:
2012-07-01T18:20:09+01:00
By:
beavis39
Seeders:
0
Leechers:
2
Comments
2
Info Hash:
9112791f87031ea2d8767003b0283097e4ed381e
Slipknot  (1999) - CD remaster by MC Lurken 24-bit 96kHz flac picture
Slipknot  (1999) - CD remaster by MC Lurken (a.k.a. Beavis39)



!!!!!!!!!!!!!THIS IS NOT AN OFFICIAL REMASTER, THIS IS A FAN RELEASE!!!!!!!!!!!!!!
!!!!!!!!!!!!!THIS IS NOT AN OFFICIAL REMASTER, THIS IS A FAN RELEASE!!!!!!!!!!!!!!
!!!!!!!!!!!!!THIS IS NOT AN OFFICIAL REMASTER, THIS IS A FAN RELEASE!!!!!!!!!!!!!!



1 - 742617000027
2- (sic)
3 - Eyeless
4 - Wait and Bleed
5 - Surfacing
6 - Spit It Out
7 - Tattered & Torn
8 - Frail Limb Nursery
9 - Purity
10 - Liberate
11 - Prosthetics
12 - No Life
13 - Diluted
14 - Only One
15 - Scissors
16 - Me Inside
17 - Get This
18 - Snap (Demo)
19 - Interloper (Demo)
20 - Despise (Demo)
21 - Untitled
22 - Eeyore



foobar2000 1.1.13 / Dynamic Range Meter 1.1.1
log date: 2012-07-01 09:24:38

--------------------------------------------------------------------------------
Analyzed: ? / ?
--------------------------------------------------------------------------------

DR         Peak         RMS     Duration Track
--------------------------------------------------------------------------------
DR10      -2.95 dB   -15.99 dB      0:36 ?-01 - 742617000027
DR6       -0.07 dB    -7.27 dB      3:20 ?-02 - (sic)
DR6       -0.07 dB    -7.35 dB      3:56 ?-03 - Eyeless
DR6       -0.07 dB    -7.46 dB      2:28 ?-04 - Wait and Bleed
DR6       -0.07 dB    -7.71 dB      3:38 ?-05 - Surfacing
DR6       -0.07 dB    -7.17 dB      2:40 ?-06 - Spit It Out
DR5       -0.07 dB    -7.52 dB      2:54 ?-07 - Tattered & Torn
DR11      -1.22 dB   -14.65 dB      0:45 ?-08 - Frail Limb Nursery
DR6       -0.07 dB    -7.72 dB      4:14 ?-09 - Purity
DR6       -0.07 dB    -7.38 dB      3:07 ?-10 - Liberate
DR6       -0.07 dB    -7.92 dB      4:58 ?-11 - Prosthetics
DR7       -0.07 dB    -7.86 dB      2:47 ?-12 - No Life
DR6       -0.07 dB    -7.18 dB      3:23 ?-13 - Diluted
DR6       -0.07 dB    -7.86 dB      2:26 ?-14 - Only One
DR6       -0.07 dB    -8.88 dB      8:23 ?-15 - Scissors
DR6       -0.07 dB    -7.91 dB      2:39 ?-16 - Me Inside
DR7       -0.07 dB    -7.88 dB      2:03 ?-17 - Get This
DR6       -0.07 dB    -6.98 dB      2:42 ?-18 - Snap (Demo)
DR7       -0.50 dB    -8.64 dB      2:18 ?-19 - Interloper (Demo)
DR7       -0.07 dB    -8.07 dB      3:41 ?-20 - Despise (Demo)
DR10      -1.24 dB   -17.58 dB      3:07 ?-21 - Untitled
DR6       -0.07 dB    -7.96 dB      2:48 ?-22 - Eeyore
--------------------------------------------------------------------------------

Number of tracks:  22
Official DR value: DR7

Samplerate:        96000 Hz
Channels:          2
Bits per sample:   24
Bitrate:           4608 kbps
Codec:             PCM



enjoy :)
Files:

Comments

Fan release compiled from 3 different discs containing all the songs on an imported version of this CD I used to have. This is not an official release. Setup -HP G72-250US -Intel Core i3 M350 2.27GHz -8Gb PC3-10700 RAM -Win7 64-bit SP1 -SB X-Fi Surround 5.1 Process -Original 16/44.1 files joined in Wavelab 6 -DC offset removed, this will yield a file with a bit depth of 18-24 bits -Resample to 384kHz in Wavelab w/crystal resampler ultra(slow) relax background priority -Perform 2-pass recording process in Wavelab @ 64-bit float/384kHz 0db gain As reported in Wavelab: -Original 16/44 - Apparent Bit Resolution = 16, Peak = 0db -DC Offset Removed - Apparent Bit Resolution = no offset (16), Peak = 0db -Final Recording - Apparent Bit Resolution = 39, Peak = 2.556db -Convert newly recorded 64/384 file to DSD128 with Weiss Saracon 1.61-27* *this step allows me to keep nearly all of the detail of the 64/384 file when going to lower bit depths/sampling frequencies Settings in Weiss Saracon: -Modulator Type - CRFB 10th Order -Sample Rate - 5.6448MHz -Gain (db SACD) - 0db -Stabilizer - off -Dither - off -Convert newly created DSD file to 24-bit/96kHz wav file with Weiss Saracon 1.61-27 w/0db gain and TPDF dither -Apply precision 6db gain* and MBIT+ Dither (Noise Shaping - Light, Dither Amount - High, Auto-blanking - on) in Wavelab w/Izotope Ozone 4 VST Plugin *DSD -> PCM = -6db -Flac encode level 0 with Trader's Little Helper -Tag and pic with xrecode II
WOW Beavis39,You are doing the real audiophile shit!as soon as i can i will be downloading this and rock it out of my O2+ODac+Sennheiser HD650!Thanks!
0